#TITLE:M.A.M.A.;
#SUBTITLE:;
#ARTIST:DJ Sharpnel;
#TITLETRANSLIT:;
#SUBTITLETRANSLIT:;
#ARTISTTRANSLIT:;
#CREDIT:;
#BANNER:MAMA-bn.png;
#BACKGROUND:M.jpg;
#LYRICSPATH:;
#CDTITLE:cd-yanah.PNG;
#MUSIC:DJ Sharpnel - Rave Spector - 08 - M.A.M.A..mp3;
#OFFSET:-3.624;
#SAMPLESTART:34.286;
#SAMPLELENGTH:11.900;
#SELECTABLE:YES;
#BPMS:0.000=175.000;
#STOPS:;
#BGCHANGES:;
// cache tags:
#FIRSTBEAT:0.000;
#LASTBEAT:399.000;
#SONGFILENAME:Songs/nhac/M.A.M.A/M.A.M.A..sm;
#HASMUSIC:1;
#HASBANNER:1;
#MUSICLENGTH:143.098;
// end cache tags

//---------------dance-single - Blank----------------
#NOTES:
     dance-single:
     Blank:
     Hard:
     11:
     1.000,1.000,1.000,0.070,1.000,1044.000,218.000,10.000,0.000,4.000:

0100
0010
0000
0001
1000
0100
0001
1000
0010
0001
1000
0100
0001
1000
0010
0001
,
1000
0001
0000
0100
0010
1000
0100
0010
0001
0100
0010
1000
0100
0010
0001
0100
,
0010
0100
0000
1000
0001
0010
1000
0001
0100
1000
0001
0010
1000
0001
0100
1000
,
0001
1000
0000
0010
0100
0001
0010
0100
1000
0010
0100
0001
0010
0100
1000
0010
,
0101
0000
0000
0000
0110
0000
0000
0000
1100
0000
0000
0001
1100
0000
0110
0000
,
0011
0000
1001
0000
1010
0000
0011
0110
,
1100
0000
0000
0000
0101
0000
0000
0000
1010
0000
0000
0001
1100
0000
0101
0000
,
0110
0000
1010
0000
0101
0000
1001
1100
,
0011
0000
0000
0000
1001
0000
0000
0000
0101
0000
0000
1000
0101
0000
1001
0000
,
1010
0000
0110
0000
1100
0000
1010
1001
,
0101
0000
0000
0000
0011
0000
0000
0000
1100
0000
0000
1000
0101
0000
0011
0000
,
1001
0000
1100
0000
0011
0000
0110
0101
,
1000
0000
0100
0000
0010
0000
0001
0000
0010
0000
0100
1000
0100
0000
0010
0000
,
0100
0001
1000
0010
1000
0001
0100
1000
,
0001
0010
0100
1000
0100
0010
0001
0100
0010
1000
0001
0100
0001
1000
0010
0001
,
1000
0100
0010
0000
0100
0010
0001
0000
0010
0001
1000
0000
0001
1000
0100
0000
0001
0100
0001
1000
0001
0100
0001
1000
0001
0100
0001
1000
0001
0100
0001
1000
,
0011
0000
0100
0000
1001
0000
0100
0000
0010
1000
0100
0001
0010
0000
0100
0000
,
1010
0000
0001
0000
0110
0000
0001
0000
1000
0100
0001
0010
1100
0000
0101
0000
,
1100
0000
0010
0000
1001
0000
0010
0000
0100
0001
0010
1000
0100
0000
0010
0000
,
0101
1000
0110
1000
0011
1100
0101
1010
,
0110
0000
0001
0000
0110
0000
1000
0000
0001
1000
0001
0100
0001
0000
1000
0000
,
0011
0000
0100
0000
1001
0000
0100
0000
0010
1000
0100
0001
1010
0000
1100
0000
,
0101
0000
0001
0000
1100
0000
0001
0000
1000
0100
0001
0100
1000
0000
0001
0000
,
0110
0000
0000
0000
0001
0000
0000
0000
1010
0000
0000
0000
0001
0000
0010
0000
0100
0000
1000
0100
1000
0000
0100
0000
0010
0000
0001
0010
0001
0000
0010
0000
,
1100
0000
0011
0110
1100
0000
0011
0110
,
1100
0000
0011
0110
1010
0101
1010
0110
,
0011
0000
1100
0110
0011
0000
1100
0110
,
0011
0000
0000
0000
1100
0000
0110
0000
0101
0000
1100
0001
1010
0000
0110
0000
,
1001
0000
0101
1100
0011
0000
0101
1100
,
0011
0000
0101
1100
0011
0101
0011
1100
,
0101
0000
1010
0101
1100
0000
1010
0101
,
1100
0000
0000
0000
1100
0000
0000
0000
1100
0000
0001
0000
0001
0000
0001
0010
,
0100
0000
0100
0000
1000
0100
0010
0100
1000
0000
0100
0000
0100
0000
0100
0001
,
1000
0000
1000
0000
0010
1000
0001
1000
0010
0000
1000
0000
1000
0000
1000
0100
,
0010
0000
0010
0000
0001
0010
0100
0010
0001
0000
0010
0000
0010
0000
0010
1000
,
0001
0000
0001
0000
0100
0001
1000
0001
0100
0000
0100
0000
0100
0000
0100
0001
,
1000
0000
1000
0000
0010
1000
0001
1000
0010
0000
1000
0000
1000
0000
1000
0100
,
0010
0000
0010
0000
0001
0010
0100
0010
0001
0000
0010
0000
0010
0000
0010
1000
,
0001
0000
0001
0000
0100
0001
1000
0001
0100
0000
0001
0000
0001
0000
0001
0010
,
1000
0000
0000
0000
0100
0000
0000
0000
1000
0000
0100
0000
0010
0000
0100
0000
1000
0100
1000
0000
0100
0000
0010
0000
0001
0010
0001
0000
0010
0000
0000
0000
,
0110
0000
1000
0000
0100
0000
0001
0000
1000
0010
1000
0000
0011
0000
1010
0000
,
0110
0000
0001
0000
1000
0000
0001
0000
0010
0100
0010
0000
1100
0000
0101
0000
,
0110
0000
1000
0000
0001
0000
1000
0000
0100
0001
0100
0000
1010
0000
0011
0000
,
0101
0000
1000
0000
0010
0000
1000
0000
0001
0010
0001
0000
0101
1000
0100
0000
,
0101
0000
0010
0000
0100
0000
0010
0000
1000
0100
0010
0000
0101
0000
1100
0000
,
0011
0000
0100
0000
1000
0000
0100
0000
0001
0010
0100
0000
1010
0000
0011
0000
,
0101
0000
0001
0000
1000
0000
0100
0000
0010
0100
1000
0000
0110
0000
0011
0000
,
1010
0000
0100
0000
0001
0000
0000
0000
1100
0000
0000
0000
0101
0000
0000
0000
0110
0000
0000
0000
1010
0000
0000
0000
1000
0000
0100
0000
1000
0100
1000
0000
,
0011
0000
0100
0000
0010
0000
1000
0000
0001
0100
0001
0000
1100
0000
0101
0000
,
0110
0000
1000
0000
0001
0000
1000
0000
0100
0010
0100
0000
0011
0000
1010
0000
,
0110
0000
0001
0000
1000
0000
0001
0000
0010
1000
0010
0000
0101
0000
1100
0000
,
1010
0000
0000
0000
0001
0000
0000
0000
0100
0000
0000
0000
0001
0000
0000
0000
1000
0000
0100
0000
1000
0000
0000
0001
1010
0000
0000
0000
0110
0000
0000
0000
,
0101
0000
1000
0000
0001
0000
0010
0000
0100
1000
0100
0000
1010
0000
1100
0000
,
1001
0000
0010
0000
0100
0000
0010
0000
1000
0001
1000
0000
0101
0000
0011
0000
,
1001
0000
0100
0000
0010
0000
0100
0000
0001
0010
0001
0000
1100
0000
1010
0000
,
0011
0000
0000
0000
0100
0000
0000
0000
1000
0000
0000
0000
0100
0000
0000
0000
0010
0000
1000
0000
0010
0000
0000
1000
0101
0000
0000
0000
1001
0000
0000
0000
,
1100
0000
0010
0000
0100
0000
0001
0000
1000
0010
1000
0000
0011
0000
1010
0000
,
0110
0000
0001
0000
1000
0000
0001
0000
0010
0100
0010
0000
1100
0000
0101
1000
,
0110
0000
1000
0000
0001
0000
1000
0000
0100
0001
0100
0000
1010
0000
0011
0000
,
0101
0000
1000
0000
0010
0000
1000
0000
0001
0010
0001
0000
0101
0000
0110
0001
,
1010
0000
0001
0000
1000
0000
0100
0000
0010
0001
0010
0000
0101
0000
0011
0000
,
1001
0000
0100
0000
0010
0000
0100
0000
0001
1000
0001
0000
1010
0000
1100
0001
,
1010
0000
0010
0000
0100
0000
0010
0000
1000
0100
1000
0000
0011
0000
0101
0000
,
1100
0000
0010
0000
1001
0000
0010
0000
0100
0001
0100
0000
1100
0000
0101
1000
,
0011
0000
0100
0000
0010
0000
1000
0000
0001
0100
0001
0000
1100
0000
0101
0000
,
0110
0000
1000
0000
0001
0000
1000
0000
0100
0010
0100
0000
0011
0000
1010
0001
,
0110
0000
0001
0000
1000
0000
0001
0000
0010
1000
0010
0000
0101
0000
1100
0000
,
1010
0000
0001
0000
0100
0000
0001
0000
1000
0100
1000
0000
1010
0000
0110
0001
,
1100
0000
0010
0000
0001
0000
0010
0000
0100
1000
0100
0000
1010
0000
1100
0000
,
1001
0000
0010
0000
0100
0000
0010
0000
1000
0001
1000
0000
0101
0000
0011
1000
,
0101
0000
0100
0000
0010
0000
0100
0000
0001
0010
0001
0000
1100
0000
1010
0000
,
0011
0000
0100
0000
1010
0000
0100
0000
0110
1000
0100
0000
0011
0000
0110
1000
,
0102
1000
0100
0010
0100
1000
0100
0010
,
0203
1000
0010
0001
0010
1000
0010
0001
,
0320
0001
0100
0001
1000
0001
0100
0001
,
2030
0000
0000
0000
,
3200
0010
1000
0001
1000
0010
1000
0001
,
0320
1000
0001
0100
0001
1000
0001
0100
,
0032
0100
1000
0100
1000
0100
1000
0100
1000
0100
1000
0100
1000
0100
1000
0000
,
2103
0101
0101
0101
,
3010
0100
0001
1000
0100
0010
0001
0100
0001
0010
0001
1000
0001
0010
0100
0001
,
0100
1000
0100
0001
0010
0100
0001
1000
0001
0100
1000
0010
1000
0100
0010
0001
,
0010
0100
1000
0010
1000
0100
0010
0001
1000
0010
0100
1000
0001
0010
0001
0100
,
1000
0100
0001
1000
0001
0010
0100
1000
0001
0100
0010
0001
1000
0010
0100
0010
,
1000
0010
0100
0001
0100
0010
0001
0100
1000
0010
0100
0001
1000
0100
0001
0010
,
1000
0100
1000
0001
1000
0100
1000
0001
0100
1000
0010
1000
0001
0100
0010
0001
,
1000
0010
0100
0010
1000
0100
1000
0001
1000
0010
0100
1000
0100
0010
0001
1000
,
0100
0010
1000
0001
0100
1000
0010
0001
1000
0100
1000
0001
0100
1000
0010
0001
,
0010
1000
0100
0010
0001
0100
0010
0001
1000
0010
0100
1000
0001
0100
0010
0001
,
0100
1000
0010
0001
1000
0100
0010
0001
1000
0100
1000
0001
0100
0010
0001
0010
,
0100
1000
0100
0001
0010
0100
1000
0001
0010
1000
0100
0010
1000
0100
1000
0010
,
0001
0100
0010
0001
1000
0100
0001
1000
0001
0010
0100
0001
0010
0100
1000
0010
,
0001
0100
1000
0100
0001
0010
1000
0010
0001
0100
1000
0100
0001
0010
1000
0010
,
0100
1000
0010
1000
0100
0001
0010
0001
0100
1000
0010
1000
0100
0001
0010
0001
,
1000
0100
1000
0100
1000
0100
1000
0100
1000
0100
1000
0100
1000
0100
1000
0100
,
0010
0100
0010
0100
0010
0100
0010
0100
0010
0100
0010
0100
0010
0100
0010
0100
,
0010
0001
0010
0001
0010
0001
0010
0001
0010
0001
0010
0001
0010
0001
0010
0001
,
0010
0100
0010
0100
0010
0100
0010
0100
0010
0100
0010
0100
0010
0100
0010
0100
,
2002
0000
0000
0000
,
0000
0000
0000
3003
;
